请选择 进入手机版 | 继续访问电脑版

天天资源吧

 找回密码
 立即注册
搜索
热搜: 活动 交友 discuz
查看: 44|回复: 1

[BD-1080P][德国][1927][大都会][科幻][黑白默片][1080P][MKV/14G][英版蓝光修复无水印][百度云盘]

[复制链接]

Rank: 9Rank: 9Rank: 9

积分
425457
发表于 发表于2021-07-23 | 显示全部楼层 |阅读模式
[BD-1080P][德国][1927][大都会][阿弗莱德·阿贝尔/古斯塔夫·佛力施][科幻][黑白默片][1080P][MKV/14G][英版蓝光修复无水印][百度云盘]

p906689323.webp.jpg

◎译  名 大都会 / 科学世界
◎片  名 Metropolis
◎年  代 1927
◎产  地 德国
◎类  别 剧情 / 科幻
◎语  言 无对白
◎上映日期 1927-01-10
◎IMDb评分  8.3/10 from 162253 users
◎IMDb链接  https://www.imdb.com/title/tt0017136
◎豆瓣评分 9.1/10 from 32431 users
◎豆瓣链接 https://movie.douban.com/subject/1298107/
◎片  长 153分钟
◎导  演 弗里茨·朗 Fritz Lang
◎编  剧 特娅·冯·哈堡 Thea von Harbou / 弗里茨·朗 Fritz Lang
◎主  演 阿弗莱德·阿贝尔 Alfred Abel
       古斯塔夫·佛力施 Gustav Fröhlich
       布里吉特·赫尔姆 Brigitte Helm
       鲁道夫·克莱恩-鲁格 Rudolf Klein-Rogge
       Heinrich George
       西奥多·卢斯 Theodor Loos
       弗里茨·拉斯普 Fritz Rasp
       Erwin Biswanger


◎标  签 科幻 | 德国 | 默片 | 经典 | 德国电影 | 1927 | 弗里茨·朗 | 表现主义

◎简  介  

  Freder(Gustav Fröhlich 饰)是大都会主宰 Joh Fredersen(Alfred Abel 饰)的儿子。经一位圣洁姑娘(Brigitte Helm 饰)启示,Freder 来到地下目睹了在此劳作的劳工们悲惨的境遇。Freder 向父亲进言,想改变劳工们的处境。但 Joh 不为所动,却对从劳工们身上发现的地图感到忧虑。为弄清地图所示,Joh 不得不向老对头 Rotwang(Rudolf Klein-Rogge 饰)求教。地图所示究竟为何地?劳工们为何要去那里?


Video
ID                             : 1
Format                         : AVC
Format/Info                    : Advanced Video Codec
Format profile                 : High@L4.1
Format settings                : CABAC / 5 Ref Frames
Format settings, CABAC         : Yes
Format settings, Reference fra : 5 frames
Codec ID                       : V_MPEG4/ISO/AVC
Duration                       : 2 h 30 min
Bit rate                       : 12.7 Mb/s
Width                          : 1 440 pixels
Height                         : 1 080 pixels
Display aspect ratio           : 4:3
Frame rate mode                : Constant
Frame rate                     : 24.000 FPS
Color space                    : YUV
Chroma subsampling             : 4:2:0
Bit depth                      : 8 bits
Scan type                      : Progressive
Bits/(Pixel*Frame)             : 0.340
Stream size                    : 13.3 GiB (95%)
Writing library                : x264 core 142 r2431 ac76440
Encoding settings              : cabac=1 / ref=5 / deblock=1:-3:-3 / analyse=0x3:0x133 / me=umh / subme=11 / psy=1 / psy_rd=1.00:0.00 / mixed_ref=1 / me_range=32 / chroma_me=1 / trellis=2 / 8x8dct=1 / cqm=0 / deadzone=21,11 / fast_pskip=0 / chroma_qp_offset=-2 / threads=12 / lookahead_threads=2 / sliced_threads=0 / nr=0 / decimate=1 / interlaced=0 / bluray_compat=0 / constrained_intra=0 / bframes=8 / b_pyramid=2 / b_adapt=2 / b_bias=0 / direct=1 / weightb=1 / open_gop=0 / weightp=2 / keyint=240 / keyint_min=22 / scenecut=40 / intra_refresh=0 / rc_lookahead=60 / rc=2pass / mbtree=1 / bitrate=12690 / ratetol=1.0 / qcomp=0.60 / qpmin=0 / qpmax=69 / qpstep=4 / cplxblur=20.0 / qblur=0.5 / vbv_maxrate=50000 / vbv_bufsize=50000 / nal_hrd=none / filler=0 / ip_ratio=1.40 / aq=1:1.00
Language                       : German
Default                        : Yes
Forced                         : No


Audio
ID                             : 2
Format                         : AC-3
Format/Info                    : Audio Coding 3
Commercial name                : Dolby Digital
Codec ID                       : A_AC3
Duration                       : 2 h 30 min
Bit rate mode                  : Constant
Bit rate                       : 640 kb/s
Channel(s)                     : 6 channels
Channel layout                 : L R C LFE Ls Rs
Sampling rate                  : 48.0 kHz
Frame rate                     : 31.250 FPS (1536 SPF)
Compression mode               : Lossy
Stream size                    : 688 MiB (5%)
Language                       : German
Service kind                   : Complete Main
Default                        : Yes
Forced                         : No


Text #1
ID                             : 3
Format                         : UTF-8
Codec ID                       : S_TEXT/UTF8
Codec ID/Info                  : UTF-8 Plain Text
Duration                       : 2 h 26 min
Bit rate                       : 10 b/s
Count of elements              : 362
Stream size                    : 11.6 KiB (0%)
Title                          : 简体
Language                       : Chinese
Default                        : Yes
Forced                         : No


Text #2
ID                             : 4
Format                         : UTF-8
Codec ID                       : S_TEXT/UTF8
Codec ID/Info                  : UTF-8 Plain Text
Duration                       : 2 h 26 min
Bit rate                       : 10 b/s
Count of elements              : 362
Stream size                    : 11.6 KiB (0%)
Title                          : 繁体
Language                       : Chinese
Default                        : No
Forced                         : No


Text #3
ID                             : 5
Format                         : UTF-8
Codec ID                       : S_TEXT/UTF8
Codec ID/Info                  : UTF-8 Plain Text
Duration                       : 2 h 26 min
Bit rate                       : 21 b/s
Count of elements              : 362
Stream size                    : 22.6 KiB (0%)
Title                          : 腾祥嘉丽中圆简体
Language                       : Chinese
Default                        : No
Forced                         : No


Text #4
ID                             : 6
Format                         : UTF-8
Codec ID                       : S_TEXT/UTF8
Codec ID/Info                  : UTF-8 Plain Text
Duration                       : 2 h 26 min
Bit rate                       : 21 b/s
Count of elements              : 362
Stream size                    : 22.6 KiB (0%)
Title                          : 腾祥嘉丽中圆繁体
Language                       : Chinese
Default                        : No
Forced                         : No



◎资源链接:

https://pan.baidu.com/share/init?surl=hbb6CBNdHclDpF3SOC06lA(←购买前请先验证分享链接是否有效)


游客,如果您要查看本帖隐藏内容请回复



回复

使用道具 举报

Rank: 2

积分
105
发表于 发表于2021-07-23 | 显示全部楼层
hytutj.jpg
回复 支持 反对

使用道具 举报

您需要登录后才可以回帖 登录 | 立即注册

本版积分规则

Archiver|手机版|小黑屋|天天资源影视论坛-打造最专业的百度资源社区 ( 内ICP备171283111号

GMT+8, 2021-7-24 15:23 , Processed in 0.044577 second(s), 27 queries .

Powered by Discuz! X3.2

© 2001-2013 Comsenz Inc.

快速回复 返回顶部 返回列表