请选择 进入手机版 | 继续访问电脑版

天天资源吧

 找回密码
 立即注册
搜索
热搜: 活动 交友 discuz
查看: 12|回复: 1

剧情 / 喜剧 / 运动 3D-大明猩.纯净版无水印广告.1080p.BluRay.国韩双语 [百度云盘]

[复制链接]

6755

主题

7050

帖子

34万

积分

管理员

Rank: 9Rank: 9Rank: 9

积分
345690
发表于 2021-2-23 13:34:28 | 显示全部楼层 |阅读模式
  剧情 / 喜剧 / 运动 3D-大明猩.纯净版无水印广告.1080p.BluRay.国韩双语 [百度云盘]


p2018584477.webp.jpg

导演: 金容华
编剧: 金容华
主演: 徐娇 / 成东日 / 金康宇 / 金应洙 / 边熙峰 / [url=]更多...[/url]
类型: 剧情 / 喜剧 / 运动
制片国家/地区: 中国大陆 / 韩国
语言: 汉语普通话 / 日语 / 韩语
上映日期: 2013-07-18(中国大陆) / 2013-07-17(韩国)
片长: 135分钟
又名: 王牌巨猩(台) / 超级巨猩(港) / 棒球明猩 / Mr.GO




General
Format                         : Matroska
Format version                 : Version 4
File size                      : 13.6 GiB
Duration                       : 2 h 12 min
Overall bit rate               : 14.7 Mb/s
Encoded date                   : UTC 2019-02-07 19:42:40
Writing application            : mkvmerge v24.0.0 ('Beyond The Pale') 64-bit
Writing library                : libebml v1.3.6 + libmatroska v1.4.9

Video
ID                             : 1
Format                         : AVC
Format/Info                    : Advanced Video Codec
Format profile                 : High@L4.1
Format settings                : CABAC / 4 Ref Frames
Format settings, CABAC         : Yes
Format settings, Reference fra : 4 frames
Codec ID                       : V_MPEG4/ISO/AVC
Duration                       : 2 h 12 min
Bit rate                       : 13.0 Mb/s
Width                          : 1 920 pixels
Height                         : 1 080 pixels
Display aspect ratio           : 16:9
Frame rate mode                : Constant
Frame rate                     : 23.976 FPS
Color space                    : YUV
Chroma subsampling             : 4:2:0
Bit depth                      : 8 bits
Scan type                      : Progressive
Bits/(Pixel*Frame)             : 0.261
Stream size                    : 12.0 GiB (88%)
Writing library                : x264 core 129 r2230 1cffe9f
Language                       : English
Default                        : Yes
Forced                         : No

Audio #1
ID                             : 2
Format                         : AC-3
Format/Info                    : Audio Coding 3
Commercial name                : Dolby Digital
Codec ID                       : A_AC3
Duration                       : 2 h 12 min
Bit rate mode                  : Constant
Bit rate                       : 192 kb/s
Channel(s)                     : 2 channels
Channel layout                 : L R
Sampling rate                  : 48.0 kHz
Frame rate                     : 31.250 FPS (1536 SPF)
Compression mode               : Lossy
Stream size                    : 183 MiB (1%)
Title                          : 国语
Language                       : Chinese
Service kind                   : Complete Main
Default                        : No
Forced                         : No

Audio #2
ID                             : 3
Format                         : DTS
Format/Info                    : Digital Theater Systems
Codec ID                       : A_DTS
Duration                       : 2 h 12 min
Bit rate mode                  : Constant
Bit rate                       : 1 509 kb/s
Channel(s)                     : 6 channels
Channel layout                 : C L R Ls Rs LFE
Sampling rate                  : 48.0 kHz
Frame rate                     : 93.750 FPS (512 SPF)
Bit depth                      : 16 bits
Compression mode               : Lossy
Stream size                    : 1.40 GiB (10%)
Language                       : Korean
Default                        : No
Forced                         : No

Text
ID                             : 4
Format                         : ASS
Codec ID                       : S_TEXT/ASS
Codec ID/Info                  : Advanced Sub Station Alpha
Duration                       : 2 h 6 min
Bit rate                       : 306 b/s
Count of elements              : 3673
Compression mode               : Lossless
Stream size                    : 284 KiB (0%)
Title                          : 中文
Language                       : Chinese
Default                        : Yes
Forced                         : No



https://pan.baidu.com/share/init?surl=j4tTKn60I1psPBiCiKXF6A


游客,如果您要查看本帖隐藏内容请回复


回复

使用道具 举报

0

主题

3

帖子

8

积分

新手上路

Rank: 1

积分
8
发表于 2021-2-23 16:39:59 | 显示全部楼层
真不错拿来看看
回复 支持 反对

使用道具 举报

您需要登录后才可以回帖 登录 | 立即注册

本版积分规则

Archiver|手机版|小黑屋|天天资源影视论坛-打造最专业的百度资源社区 ( 内ICP备171283111号

GMT+8, 2021-3-6 09:12 , Processed in 0.027929 second(s), 27 queries .

Powered by Discuz! X3.2

© 2001-2013 Comsenz Inc.

快速回复 返回顶部 返回列表